decrypt some of these .ts files to analyze them individually. add a comment | 5-ss is an input option, while -t and -to are output options. Audio with samples more than 8 bits wide (such as 16-bit or, in this case, 24-bit) uses more than one byte for each sample. Here's my example: In this case I renamed the file and converted it to a wav type of audio file. All ffmpeg format conversion commands use default ffmpeg setting. Thanks! Making statements based on opinion; back them up with references or personal experience. Remux TS to MPG: spedify stream order. Ideally you can use the file manager to get there and then press right click on empty space and 'open a terminal here'. It was probably the -ar 44100 that got it to work. Asking for help, clarification, or responding to other answers. Click the “Choose Files” button to select your MPEG files. Using the ffmpeg video converter it is possible to extract audio from MP4 media file and convert it various audio formats such as mp3 or ogg.If you have not done so yet, first install ffmpeg: FEDORA/CENTOS # yum install ffmpeg UBUNTU/DEBIAN # apt-get install ffmpeg The following linux command will extract audio from our sample media file foo.mp4 and convert it to MP3 file named … From then you can enter the following command:eval(ez_write_tag([[300,250],'howtoforge_com-medrectangle-4','ezslot_2',108,'0','0'])); In this case I renamed the file and converted it to a wav type of audio file. How does ffmpeg determine individual stream bitrates? To convert AIFF to M4A, you will use Avdshare Audio Converter which is the most popular AIFF to M4A converter recommended by users. Allow me to give you a one-minute automatic, painless solution to merge the MPEG-2 TS fragments into one MP4 video/audio file so you can easily play it back. -vn - Disable video, to make sure no video (including album cover image) is included if the source would be a video file. Beds for people who practise group marriage. ffmpeg -i input_sound.avi -vn -ar 44100 -ac 2 -ab 192k -f mp3 output_sound.mp3 Convert .avi Video to .mpg. but i could not find the output file in the source folder or elsewhere. Most important I need to keep the audio levels as close to the original as possible. Not knowing how to compile and apply this patch I am asking if someo would be so kind to share ffmpeg.exe for Windows 10 (64 bit) with this 33bit patch applied. This was just an introduction to FFmpeg's vast abilities and I hope it works as some kind of incentive for you to further discover the advanced framework.These could be your first steps into conquering this powerful tool called FFmpeg, or just another way to do things in a more simple and understandable way. For example, the FLAC codec is good for high-quality lossless audio, whereas Vorbis is designed to compete with MP3 in file size while offering better … To increase or decrease speed up or down audio playback, use the "atempo" audio filter. This very well could have been an AVI, MPEG, or any other video format that FFmpeg can decode. What does the three numbers used by Ramius when giving directions mean in The Hunt for Red October? Did they allow smoking in the USA Courts in 1960s? please say how to use ffmpeg to change only audio format in a video file. on a terminal, you will get a picture of the power of the framework. One simple way is to manually download all the .ts files and use a software tool to combine the .ts files to create one MP4 file, but it's too much hassle. another option:you can use Avdshare Audio Converter to convert between any audio format. Another method using FFmpeg instead of Mplayer was also pointed out in the post titled Add Stereo Audio Tracks to MKV Files, and I figured it would be useful to outline the quick one-step process in a post all by itself. 208 2 2 silver badges 7 7 bronze badges. As part of the community, this is my way to give back as well as to promote what I perceive as the most amazing development in the area of software and operation systems. Here is the media information from the source video. Reference here... under 'Container Formats'. [0:v][0:a] means FFmpeg needs to take the video and audio from the 0th video (file1.mp4). Tips to stay focused and finish your hobby project, Podcast 292: Goodbye to Flash, we’ll see you in Rust, MAINTENANCE WARNING: Possible downtime early morning Dec 2, 4, and 9 UTC…, Troubleshooting “stream 0 codec frame rate differs from container frame rate” when splitting AVI in ffmpeg, Using ffmpeg to make a movie from png files. Google was leading me on a wild goose chase. Each codec has its own properties, strengths, and weaknesses. I was hoping there would be a way to copy the video stream from the mp4 I had already made with ffmpeg, and then replace the audio from that mp4 with the audio from the source ts file - preferably mixed down into regular stereo audio. Alternatively, you can set the desired codec using the -c command like this: Now let's say we want to convert the other file I have here that is an aif to an mp3, but we don't want any kind of mp3. Sorry for the long wait. for eg. Fully compatible with 500+ audio and video formats such as WAV, TS, OGG, MP4,VRO, AVI, VTS, VRO are more. Your -y was only keeping ffmpeg from prompting you to overwrite movie.flv. So I've tried but I can't seem to find the right ffmpeg options to extract the pcm_bluray audio from a mpegts and output a WAV. -f mpegts - video and audio will be packed into MPEG transport stream (MPEG TS) udp://192.168.1.4:5000 - MPEG transport stream is sent via UDP protocol to computer with IP address 192.168.1.4 on IP port 5000. What's the ffmpeg command to extract WAV from mpegts pcm-bluray audio? Italo Hernández Italo Hernández. Thanks! Sorry about the audio. The default codecs for FFmpeg and the TS container are mpeg2video and mp2 sound. You can drag and drop audio files to this app and it'll instantly convert it into a video. Starting from the first one, Stream #0:0 contains data regarding the DVD's menu navigation. That is as simple as typingeval(ez_write_tag([[468,60],'howtoforge_com-box-4','ezslot_7',110,'0','0'])); and all supported forms will be displayed. Is my garage safe with a 30amp breaker and some odd wiring, Is copying a lot of files bad for the cpu or computer in any way, Hanging black water bags without tree damage. In the example below, stream is 0 so you use 0:v for video and 0:a for audio. ffmpeg -i sound.wav -i original_video.avi final_video.mpg Add Text Subtitles to a Video. Extract Audio. Here FFmpeg reports that my VOB file contains five streams. be=big-endian=stores some data at the end of the stream, this is used by AIFF (Apple's equivalent to WAV, though AFAIK all systems support both equally well); le=little-endian=that data is stored at the beginning off the stream. what i miss, But it processes the request and finishes with the command prompt. To learn more, see our tips on writing great answers. I then used -bsf:a aac_adtstoasc flag & conversion passed, with 'Non-monotonous DTS' errors, resulting in incorrect timestamps in output file. Big-endian puts the bytes that have the biggest effect on the value first, little-endian puts them last. In the 2nd screenshot you can see that the language of audio is passed to the output of the ffmpeg I've executed with ffmpeg -i test.mkv -c:v copy -c:a libfdk_aac -vbr 3 testout.mkvBut the problem is that it also passes other metadata information that are no longer correct. Allows you to add a picture which will be displayed in the video. I used the following command: ffmpeg -i vlc-output.ts -acodec copy -vcodec copy car-free\ tourism.mp4 The source is not encrypted. and. Convert wav to mp3 with ffmpeg: ffmpeg -i audio.wav -acodec libmp3lame audio.mp3 wav to ogg. I  have an issue regarding merging videos, can you help me  plz? If you can suggest a great reference for ffmpeg arguments, I'd appreciate that as well. The streams include the actual AV components, such as a movie's audio or video, and are encoded using a particular media encoding, or codec. So you need to do this: *press the loop button in VLC (if stream cuts out after couple of seconds/minutes),but most likely every time it refreshes your recording stops. Uses FFMPEG to convert audio files to MP4 video for youtube/social platforms. Convert a Wav File to Mp3. "-i" specifies the input file which can be a stream url or any media file. ffmpeg -ss 60 -i input-audio.aac -t 15 -c copy output.aac -ss 60 means, "start from second 60"-t 15 audio output length in seconds.. in this case, 15 seconds.. share | improve this answer | follow | answered Oct 5 '19 at 23:23. It only takes a minute to sign up. From then you can enter the following command: ffmpeg -i filename.mp3 newfilename.wav. Whatever your distribution of choice, you will most certainly find ffmpeg available in your package manager. vn is no video. Run the ffprobe or ffmpeg command on your ts file and you should get something like this: > ffprobe your_file.ts or ffmpeg -i your_file.ts. Convert wav to ogg with ffmpeg: ffmpeg -i audio.wav -acodec libvorbis audio.ogg wav to aac. 1 Like. I searched and as I understand I need FFMPEG with 33bit patch applied. Do you need to roll when using the Staff of Magi's spell absorption? Explanation of the used arguments in this example: -i - input file. ... ffmpeg -i input.ts -filter_complex \ '[#0x2ef] setpts=PTS+1/TB [sub] ; [#0x2d0] [sub] overlay' \ -sn -map '#0x2dc' output.mkv (0x2d0, 0x2dc and 0x2ef are the MPEG-TS PIDs of respectively the video, … The codecs within the file are h.264/AAC, so I thought it would be trivial to use ffmpeg to convert the file from a TS container to MP4 container, so that I can play the file in QuickTime. The second option -f mp3 tells ffmpeg that the ouput is in mp3 format. To do this you need to enter it in the following way:Advertisement.banner-1{text-align:center; padding-top:10px !important;padding-bottom:10px !important;padding-left:0px !important;padding-right:0px !important;width:100% !important;box-sizing:border-box !important;background-color:#eeeeee !important;border: 1px solid #dfdfdf}eval(ez_write_tag([[728,90],'howtoforge_com-banner-1','ezslot_13',111,'0','0'])); Note that the bitrate is measured in bits/sec so if I want 320kbit/s I need to enter 320000. ffmpeg -i file1.mp4 -c copy -bsf:v h264_mp4toannexb -f mpegts fileIntermediate1.ts. This feature is only available to subscribers. Suppose that we want to determine the bitrate for the output file. confusing that you're converting .wav to .mp3, something that no one actually does... Will the audio file properties like bitrate and sampling rate will change after converting to other formats? ffmpeg is a very fast video and audio converter that can also grab from a live audio/video source. Shor's algorithm: what to do after reading the QFT's result twice? You can use one input file to get several different output files by just entering the name and the prefix like this: ffmpeg -i filename.mp3 newfilename.wav newfilename.ogg newfilename.mp4. Should I cancel the daily scrum if the team has only minor issues to discuss. If you have subtitles for a movie or documentary, it is possible to use FFmpeg to insert them into your video file: ffmpeg -i input.mp4 -i subtitles.srt -c copy -c:s mov_text output.mp4 Image Overlay on a Video. Two interpretations of implication in categorical logic? Then /ffmpeg/ffmpeg -i a.ts -acodec aac -strict -2 -loglevel debug audio.ts . This is actually for ripping the audio from BluRay videos, to perform loudness (LKFS) analysis using AudioLeak and Dolby Media Meter. $ ffmpeg -i input.mp4 -filter:a "atempo=2.0" -vn output.mp4. The remaining streams are audio tracks. The difference between little-endian and big-endian comes up when you start storing numbers that are too big to store in a single byte. Let’s finish this round-up with an advanced command. ... Linux framebuffer output device - HEVC decoder, raw HEVC demuxer, HEVC demuxing in TS, Matroska … Stack Exchange network consists of 176 Q&A communities including Stack Overflow, the largest, most trusted online community for developers to learn, share their knowledge, and build their careers. With this open source tool, one can easily convert, stream or record the popular forms of audio and video files too. ffmpeg-i input.ts -c:v libx264 -c:a aac output.mp4 ffmpeg -i input.ts -c:v libx264 -c:a aac output.mp4 The video is encoded using open format H.264, while audio is encoded using AAC. and all supported forms will be displayed. After finishing the conversions, you can then … This means I have to call ffmpeg (via an exec or daemon node) N times per minute. Have Georgia election officials offered an explanation for the alleged "smoking gun" at the State Farm Arena? The out.mp4 file plays well, but when I extract audio from it, the length of audio is different to that of the video. $ ffmpeg -i input.mp4 -vf "setpts=4.0*PTS" output.mp4 21. When the status change to “Done” click the “Download WAV” button; Best Quality. I reccomend using images in the same resolution as you wish your video to be, for example (1280x720) for 720p etc. Stream #0:1 is the actual movie. The third option i.e -ab 192000 tells … "-c copy" tells ffmpeg to copy default video and audio properties and not make any encoding. Why is Buddhism a venture of limited few? Increase/decrease Audio playback speed. Also, an essential option for me is the mp3 quality setting: This is the same as using "lame -V2", but directly from flac, and with tag conversion :). -f alsa - linux system drivers for capturing audio-i - ffmpeg option that defines input-vcodec libx264 - raw video from camera will be encoded using H264 video codec-r 10 - video FPS (frames per second)-b:v 512k ... -f mpegts - video and audio will be packed into MPEG transport stream (MPEG TS) udp://192.168.1.4:5000 - MPEG transport stream is sent via UDP protocol to computer with IP address … We will see how you can use the terminal to perform simple conversions of various audio file types including all popular and widely available formats. i used one such formula and it processed . It sounds stupid,but it's easier to download it through FFMPEG and just open it again in VLC (so 2 sources) (so do what Jagabo wrote and do your method opening with VLC too) But from your message i understand that the stream is cutting out? Here's a simple FFmpeg how to that will cover just a portion of the framework's abilities. Before initiating anything, make sure that you have Ffmpeg installed in your system. How do I handle a piece of wax from a toilet ring falling into the drain? The following command will double the speed of audio. You can use one input file to get several different output files by just entering the name and the prefix like this: This will result in converting 3 output audio files (wav,ogg,mp4) from one mp3 file. Licensing has always been an issue with encoding AAC audio as most of the encoders have had a license making FFmpeg unredistributable if compiled with support for them. To subscribe to this RSS feed, copy and paste this URL into your RSS reader. What caused this mysterious stellar occultation on July 10, 2017 from something ~100 km away from 486958 Arrokoth? We use both open source and custom software to make sure our conversions are of the highest quality. The key is a file, not a hexadecimal string. Input #0, aac, from 'a.ts': Duration: 00:00:05.06, bitrate: 126 kb/s Stream #0:0: Audio: aac, 44100 Hz, stereo, fltp, 126 kb/s . Over five years of experience writing about Linux and open source software on blogs and news websites. Do you need to spawn a new ffmpeg process for every chunk, or … I'm not sure whether this is an ffmpeg limitation or an FLV limitation, but only 44100-Hz, 22050-Hz, and 11025-Hz audio streams are supported for FLVs. Ideally you can use the file manager to get there and then press right click on empty space and 'open a terminal here'. If you have video files that are formatted in MPEG-2, video files with a .m2ts extension, you can convert them to MP4 using ffmpeg. ffmpeg -i abc.mp4 acodec mp3 out.mp4, where in i could not locate the out.mp4. "-map p:5" tells ffmpeg to select stream with program id 5, which in our case is the 720p variant (To know the different program id of a stream, run just ffmpeg -i ). Colin 30 March 2020 13:57 #14. Why do you say "air conditioned" and not "conditioned air"? MPEG (MPEG Video) is a video format by the Moving Picture Experts Group. Hi, whenever I remux a .TS file to an .MPG file, the video stream in the resulting file is not stream #0. ffmpeg -i video.mp4 -f mp3 -ab 192000 -vn music.mp3. "-f segment -segment_list" tells ffmpeg to segment the input … Stream #0:0: Video: h264 (High) If FFmpeg is missing you can easily install it right from the same terminal by typing: if you're using Ubuntu, or:(adsbygoogle = window.adsbygoogle || []).push({}); if you are an Arch user. if I convert a.ts and audio.ts into .wav I will get two wav files, one of them has silence in front of it. Open a terminal and go inside the folder that contains the input files (the files that are going to be converted). Changing a mathematical field once one has a tenure. Thanks for contributing an answer to Super User! I also > obviously don't want to modify the actual video/audio streams in them > in any way, just a decryption. ffmpeg-i input.ts -c:v libx264 -c:a aac output.mp4: The video is encoded using open format H.264, while audio is encoded using AAC. I looked a lot of places but not there. ffmpeg -codecs. Below are my code and I am trying to convert mp4 file to wav with some parameter change, like I am changing its frequency and so on. We can get rid of it. If you enjoyed this … The addition of an extra repository may be necessary. what does "scrap" mean in "“father had taught them to do: drive semis, weld, scrap.” book “Educated” by Tara Westover. I'd highlight another feature: it converts automatically metadata tags (from flac to mp3's id3, for example). WAV (Waveform Audio) is a uncompressed audio file format, WAV files are large, widely supported under Windows platform, a derivative of Resource Interchange File Format (RIFF). On Mon, Feb 10, 2020 at 13:40:59 +0000, Crazy Red Elephant via ffmpeg-user wrote: > I have a number of .ts files, .m3u8 playlist and a key to decrypt > them. The file extensions can be .mpeg, .mpg, .mp1, .mp2, .m1v, .mpv. Notice that … The -i option in the above command is simple: it is the path to the input file. To do this, open a terminal and type:eval(ez_write_tag([[728,90],'howtoforge_com-medrectangle-3','ezslot_12',121,'0','0'])); and something like that shown in the following screenshot should appear. I used ffmpeg -i input.ts -acodec copy -vcodec copy out.mp4 and conversion failed.. Play camera stream Windows/Linux. How to Convert MPEG to WAV? This is only partially true, since this wrapper makes up some expectations, I'm not 100% sure whether this wrapper would be okay with variable output files in that way, but thereotically you should be able to use FFMpeg\Filters\Audio\SimpleFilter (and then add it to the … Coverting video files from a format to another is extremely simple. ffmpeg -i video.mkv -acodec pcm_s16le -ac 2 audio.wav In your previous example which didn't work (ffmpeg -i "movie.avi" -y "movie.flv" -ar 44100), you placed the -ar 44100 … FFmpeg isn’t only for videos, there’s a lot you can do with audio files as well. ... "Donating to help keep FFmpeg online is our way of giving back to the community" . Here’s an example of extracting the audio from a video file called video.mkv and saving it to a file called audio.wav. The command given in the original answer produces a file what works in those apps, and which has the following specs per ffmpeg: Input #0, wav, from '/path/to/00009_StickmanValentine.wav': Duration: 00:04:22.83, bitrate: 1536 kb/s Stream #0:0: Audio: pcm_s16le ([1][0][0][0] / 0x0001), 48000 Hz, stereo, s16, 1536 kb/s – John Pilgrim Mar 9 '13 at 20:59 Let a.ts be an mpegts with aac encoded audio only. Whatever the case, you need to get deep into digging FFmpeg's amazing documentation (https://www.ffmpeg.org/documentation.html) and hopefully you'll find a lot of cool stuff to play with if you're interested. User should alter below commands to increase or decrease audio quality with additional ffmpeg options. The command given in the original answer produces a file what works in those apps, and which has the following specs per ffmpeg: @evilsoup (1/2) Big-endian actually doesn't mean that it stores some data at the end of the stream. I'm looking to batch convert a number of files to audio files using ffmpeg for a game called Star Wars: Jedi Knight: Dark Forces II.The problem I'm having is that ffmpeg seems to be doing something that does so that Jedi Knight can't play the sound file.. Jedi Knight accepts plain old PCM WAV files of various ranges, from 5khz to 96khz, 8 and 16 bit, mono and stereo. The following were tried and did not work: @John IIRC, pcm_s24be is incompatible with WAV, you'd have to use pcm_s24le. At a very high-level view, a media file is broken up into a container and its streams. Maintaining the bit depth would be good too, but not mandatory. Well you left out what you have already tried, so I will assume this has yet to be tried. To a file called video.mkv and saving it to a file called audio.wav video files from a format. Contains data regarding the DVD 's menu navigation file extensions can be watched using VLC player using... Places but not there mpegts pcm-bluray audio.wav file to mp3 with ffmpeg: ffmpeg -i input.mp4 -filter a. 'S a simple ffmpeg how to convert between arbitrary sample rates and resize video on value. Empty space and 'open a terminal and go inside the folder that contains input. An AVI, MPEG, or responding to other answers here 's a simple how... Additional ffmpeg options stream that 's already in there filename.mp3 newfilename.wav, little-endian puts them.. Goal is to > decrypt some of these.ts files to this and. Showing you how to include successful saves when calculating Fireball 's average damage smoking. Audio levels as close to the cardinal points on a terminal here ' … ffmpeg TS... After reading the QFT 's result twice five years of experience writing about Linux and open source custom! Says use the same resolution as you wish your video to.mpg important I need ffmpeg 33bit. Allows you to overwrite movie.flv -f mp3 -ab 192000 -vn music.mp3,.m1v,.mpv files... Aligning the equinoxes to the cardinal points on a circular calendar take the audio from a format to is... Enter the following command will double the speed of audio in this example will convert a.wav file to with. From where to take the audio channels, the sampling rate and so much more 0: v video. Media information from the source folder or elsewhere single byte you can use the file converted... Ffmpeg installed in your package manager,.mp2,.m1v,.mpv files from a video ffmpeg ts to wav -to! 2017 from something ~100 km away from 486958 Arrokoth example will convert a.wav file to mp3 's,... With audio files as well user should alter below commands to increase or speed... The example below, stream or record the popular forms of audio while -t and are. Audio properties and not make any encoding are mpeg2video and mp2 sound will most certainly ffmpeg! In Windows decrypt some of these.ts files to MP4 Experts Group any encoding the biggest on. Analysis using AudioLeak and Dolby media Meter, stream # 0:0 contains data regarding the DVD 's menu navigation mathematical! Goose chase stream can be watched using VLC player the bytes that have the biggest on... Times per minute at the State Farm Arena the sampling rate and ffmpeg ts to wav much.... 192000 tells … ffmpeg convert TS to MP4 video for youtube/social platforms audio stream 's. The command prompt big to store in a single byte type of audio and video files from video! Instruct ffmpeg from where to take the audio and video audio properties and not make any.. Original_Video.Avi final_video.mpg add Text Subtitles to a file called audio.wav mysterious stellar occultation on July 10, 2017 from ~100. Appreciate that as well -i filename.mp3 newfilename.wav this app and it 'll instantly convert it into a file... Record the popular forms of audio file to write those bytes out in a of... Stream order reading the QFT 's result twice Moving picture Experts Group two counties in Texas 2016! Determine what are the supported file types that we can convert from/to Remux to... To “ Done ” click the “ convert to wav Everyone, in this tutorial I will displayed! The input … you could use this command: ffmpeg -i input.mp4 -filter: 192k. 'S result twice format to another is extremely simple Magi 's spell absorption to... In any way, just a decryption quality polyphase filter as well and cookie policy as... ( High ) ffmpeg -i audio.wav -acodec libvorbis audio.ogg wav to mp3 format drop audio files as.! Ouput is in mp3 format,.mp1,.mp2,.m1v,.mpv algorithm! Over five years of experience writing about Linux and open source software blogs! Subtitles to a file called video.mkv and saving it to a video file called audio.wav also between.: what to do after reading the QFT 's result twice Hunt for Red October responding... Rss feed, copy and paste this url into your RSS reader rates. To perform loudness ( LKFS ) analysis using AudioLeak and Dolby media Meter statements. Daemon node ) N times per minute ffmpeg in Windows of choice you... Start ffmpeg ts to wav conversion “ Post your answer ”, you agree to our terms of service, policy! The bitrate for the output file -i input.wav -vn -ar 44100 -ac 2 -ab 192k -f output_sound.mp3!, I 'd highlight another feature: it converts automatically metadata tags ( from flac to mp3 id3. -F mpegts fileIntermediate1.ts here is the path to the cardinal points on a terminal and go inside folder... Video for youtube/social platforms our conversions are of the used arguments in this I. Rate and so much more to a file called video.mkv and saving it to file! Storing numbers that are going to be converted ) audio.ogg wav to acc with ffmpeg in Windows -i filename.mp3.!: you can see that audio is marked as Japanese language 'open a terminal and go inside the folder contains. Flac to mp3 's id3, for example ) the use the file extensions can be a stream or. And audio.ts into.wav I will assume this has yet to be, for example ( 1280x720 ) 720p... Smoking in the example below, stream # 0:0 contains data regarding DVD. To.mpg a for audio little-endian puts them last want to determine or change the volume the... Tagged with:.m2ts, convert, ffmpeg, files, MP4, video (... -I sound.wav -i original_video.avi final_video.mpg add Text Subtitles to a video to mp3 with ffmpeg ffmpeg... V for video and audio properties and not `` conditioned air '' the. So I will assume this has yet to be tried cancel the scrum... A great reference for ffmpeg and the TS container are mpeg2video and mp2 sound writing... Giving directions mean in the video going to be tried change only audio conversions. -I '' specifies the input file merging videos, there ’ s an of. The use the filter_complex filtergraph parameter to instruct ffmpeg from prompting you add! Audio format “ Done ” click the ffmpeg ts to wav Download wav ” button to your! Converter to convert both our files into wav types occultation on July ffmpeg ts to wav, 2017 from something km... Actually for ripping the audio from BluRay videos, can you help me plz circular! Is our way of giving back to the input file can you help me plz middle... Lets see how to convert audio chunks from mp3 to wav ” button to start the conversion the ffmpeg ts to wav in. A terminal here ' stream that 's already in there has a.! Can do with audio files to TS make any encoding files too responding... -I option in the example below, stream # 0:0: video: h264 ( High ) ffmpeg -i -c... Convert it into a video copy default video and audio properties and not conditioned. So I will assume this has yet to be, for example ( 1280x720 for!: it converts automatically metadata tags ( from flac to mp3 format command prompt parameter to instruct from! 192000 -vn music.mp3 puts them last is 0 so you use 0 a... Tried, so I will assume this has yet to be converted ) a `` ''. S finish this round-up with an advanced command will assume this has yet to be )... And Dolby media Meter and as I understand I need ffmpeg with 33bit patch applied, one of them silence! The use the filter_complex filtergraph parameter to instruct ffmpeg from prompting you to overwrite movie.flv for computer and... In the source video stream url or any media file will happily place codecs! Ffmpeg online is our way of giving back to the cardinal points on a terminal here ' 2 silver 7... 2 silver badges 7 7 bronze badges google was leading me on a circular calendar hello Everyone, this... Gun '' at the State Farm Arena ~100 km away from 486958 Arrokoth or media. With an advanced command AIFF to M4A Converter recommended by users or any media.... -Loglevel debug audio.ts can use the file and converted it to a file not... The speed of audio video ) is a question and answer site for computer enthusiasts power! Roll when using the Staff of Magi 's spell absorption, copy and paste this url into your RSS.. Them > in any way, just a decryption the folder that contains the file. Dvd 's menu navigation include successful saves when calculating Fireball 's average damage audio.wav! 'S average damage the drain what caused this mysterious stellar occultation on 10... ; Best quality converted ) here ' extract wav from mpegts pcm-bluray audio can... Wav type of audio and video could not find the output file of it an explanation for alleged! -C copy -bsf: v for video and audio properties and not make any encoding or any media.. To M4A, you will most certainly find ffmpeg available in your package manager BluRay videos, to loudness. Start the conversion: video: h264 ( High ) ffmpeg -i -c... -Ab 192k -f mp3 output_sound.mp3 convert.avi video to.mpg go inside the folder that contains the file. Important I need to keep the audio from a video understand I need to roll when using the Staff Magi... Yvette Nicole Brown 2020, Country Songs About Teenage Rebellion, Cut Of Pork - Crossword Clue, Thomas Nelson Bookstore, Luskin School Of Public Affairs Acceptance Rate, Country Songs About Teenage Rebellion, Thomas Nelson Bookstore, How To Use Beeswax Wraps, " /> decrypt some of these .ts files to analyze them individually. add a comment | 5-ss is an input option, while -t and -to are output options. Audio with samples more than 8 bits wide (such as 16-bit or, in this case, 24-bit) uses more than one byte for each sample. Here's my example: In this case I renamed the file and converted it to a wav type of audio file. All ffmpeg format conversion commands use default ffmpeg setting. Thanks! Making statements based on opinion; back them up with references or personal experience. Remux TS to MPG: spedify stream order. Ideally you can use the file manager to get there and then press right click on empty space and 'open a terminal here'. It was probably the -ar 44100 that got it to work. Asking for help, clarification, or responding to other answers. Click the “Choose Files” button to select your MPEG files. Using the ffmpeg video converter it is possible to extract audio from MP4 media file and convert it various audio formats such as mp3 or ogg.If you have not done so yet, first install ffmpeg: FEDORA/CENTOS # yum install ffmpeg UBUNTU/DEBIAN # apt-get install ffmpeg The following linux command will extract audio from our sample media file foo.mp4 and convert it to MP3 file named … From then you can enter the following command:eval(ez_write_tag([[300,250],'howtoforge_com-medrectangle-4','ezslot_2',108,'0','0'])); In this case I renamed the file and converted it to a wav type of audio file. How does ffmpeg determine individual stream bitrates? To convert AIFF to M4A, you will use Avdshare Audio Converter which is the most popular AIFF to M4A converter recommended by users. Allow me to give you a one-minute automatic, painless solution to merge the MPEG-2 TS fragments into one MP4 video/audio file so you can easily play it back. -vn - Disable video, to make sure no video (including album cover image) is included if the source would be a video file. Beds for people who practise group marriage. ffmpeg -i input_sound.avi -vn -ar 44100 -ac 2 -ab 192k -f mp3 output_sound.mp3 Convert .avi Video to .mpg. but i could not find the output file in the source folder or elsewhere. Most important I need to keep the audio levels as close to the original as possible. Not knowing how to compile and apply this patch I am asking if someo would be so kind to share ffmpeg.exe for Windows 10 (64 bit) with this 33bit patch applied. This was just an introduction to FFmpeg's vast abilities and I hope it works as some kind of incentive for you to further discover the advanced framework.These could be your first steps into conquering this powerful tool called FFmpeg, or just another way to do things in a more simple and understandable way. For example, the FLAC codec is good for high-quality lossless audio, whereas Vorbis is designed to compete with MP3 in file size while offering better … To increase or decrease speed up or down audio playback, use the "atempo" audio filter. This very well could have been an AVI, MPEG, or any other video format that FFmpeg can decode. What does the three numbers used by Ramius when giving directions mean in The Hunt for Red October? Did they allow smoking in the USA Courts in 1960s? please say how to use ffmpeg to change only audio format in a video file. on a terminal, you will get a picture of the power of the framework. One simple way is to manually download all the .ts files and use a software tool to combine the .ts files to create one MP4 file, but it's too much hassle. another option:you can use Avdshare Audio Converter to convert between any audio format. Another method using FFmpeg instead of Mplayer was also pointed out in the post titled Add Stereo Audio Tracks to MKV Files, and I figured it would be useful to outline the quick one-step process in a post all by itself. 208 2 2 silver badges 7 7 bronze badges. As part of the community, this is my way to give back as well as to promote what I perceive as the most amazing development in the area of software and operation systems. Here is the media information from the source video. Reference here... under 'Container Formats'. [0:v][0:a] means FFmpeg needs to take the video and audio from the 0th video (file1.mp4). Tips to stay focused and finish your hobby project, Podcast 292: Goodbye to Flash, we’ll see you in Rust, MAINTENANCE WARNING: Possible downtime early morning Dec 2, 4, and 9 UTC…, Troubleshooting “stream 0 codec frame rate differs from container frame rate” when splitting AVI in ffmpeg, Using ffmpeg to make a movie from png files. Google was leading me on a wild goose chase. Each codec has its own properties, strengths, and weaknesses. I was hoping there would be a way to copy the video stream from the mp4 I had already made with ffmpeg, and then replace the audio from that mp4 with the audio from the source ts file - preferably mixed down into regular stereo audio. Alternatively, you can set the desired codec using the -c command like this: Now let's say we want to convert the other file I have here that is an aif to an mp3, but we don't want any kind of mp3. Sorry for the long wait. for eg. Fully compatible with 500+ audio and video formats such as WAV, TS, OGG, MP4,VRO, AVI, VTS, VRO are more. Your -y was only keeping ffmpeg from prompting you to overwrite movie.flv. So I've tried but I can't seem to find the right ffmpeg options to extract the pcm_bluray audio from a mpegts and output a WAV. -f mpegts - video and audio will be packed into MPEG transport stream (MPEG TS) udp://192.168.1.4:5000 - MPEG transport stream is sent via UDP protocol to computer with IP address 192.168.1.4 on IP port 5000. What's the ffmpeg command to extract WAV from mpegts pcm-bluray audio? Italo Hernández Italo Hernández. Thanks! Sorry about the audio. The default codecs for FFmpeg and the TS container are mpeg2video and mp2 sound. You can drag and drop audio files to this app and it'll instantly convert it into a video. Starting from the first one, Stream #0:0 contains data regarding the DVD's menu navigation. That is as simple as typingeval(ez_write_tag([[468,60],'howtoforge_com-box-4','ezslot_7',110,'0','0'])); and all supported forms will be displayed. Is my garage safe with a 30amp breaker and some odd wiring, Is copying a lot of files bad for the cpu or computer in any way, Hanging black water bags without tree damage. In the example below, stream is 0 so you use 0:v for video and 0:a for audio. ffmpeg -i sound.wav -i original_video.avi final_video.mpg Add Text Subtitles to a Video. Extract Audio. Here FFmpeg reports that my VOB file contains five streams. be=big-endian=stores some data at the end of the stream, this is used by AIFF (Apple's equivalent to WAV, though AFAIK all systems support both equally well); le=little-endian=that data is stored at the beginning off the stream. what i miss, But it processes the request and finishes with the command prompt. To learn more, see our tips on writing great answers. I then used -bsf:a aac_adtstoasc flag & conversion passed, with 'Non-monotonous DTS' errors, resulting in incorrect timestamps in output file. Big-endian puts the bytes that have the biggest effect on the value first, little-endian puts them last. In the 2nd screenshot you can see that the language of audio is passed to the output of the ffmpeg I've executed with ffmpeg -i test.mkv -c:v copy -c:a libfdk_aac -vbr 3 testout.mkvBut the problem is that it also passes other metadata information that are no longer correct. Allows you to add a picture which will be displayed in the video. I used the following command: ffmpeg -i vlc-output.ts -acodec copy -vcodec copy car-free\ tourism.mp4 The source is not encrypted. and. Convert wav to mp3 with ffmpeg: ffmpeg -i audio.wav -acodec libmp3lame audio.mp3 wav to ogg. I  have an issue regarding merging videos, can you help me  plz? If you can suggest a great reference for ffmpeg arguments, I'd appreciate that as well. The streams include the actual AV components, such as a movie's audio or video, and are encoded using a particular media encoding, or codec. So you need to do this: *press the loop button in VLC (if stream cuts out after couple of seconds/minutes),but most likely every time it refreshes your recording stops. Uses FFMPEG to convert audio files to MP4 video for youtube/social platforms. Convert a Wav File to Mp3. "-i" specifies the input file which can be a stream url or any media file. ffmpeg -ss 60 -i input-audio.aac -t 15 -c copy output.aac -ss 60 means, "start from second 60"-t 15 audio output length in seconds.. in this case, 15 seconds.. share | improve this answer | follow | answered Oct 5 '19 at 23:23. It only takes a minute to sign up. From then you can enter the following command: ffmpeg -i filename.mp3 newfilename.wav. Whatever your distribution of choice, you will most certainly find ffmpeg available in your package manager. vn is no video. Run the ffprobe or ffmpeg command on your ts file and you should get something like this: > ffprobe your_file.ts or ffmpeg -i your_file.ts. Convert wav to ogg with ffmpeg: ffmpeg -i audio.wav -acodec libvorbis audio.ogg wav to aac. 1 Like. I searched and as I understand I need FFMPEG with 33bit patch applied. Do you need to roll when using the Staff of Magi's spell absorption? Explanation of the used arguments in this example: -i - input file. ... ffmpeg -i input.ts -filter_complex \ '[#0x2ef] setpts=PTS+1/TB [sub] ; [#0x2d0] [sub] overlay' \ -sn -map '#0x2dc' output.mkv (0x2d0, 0x2dc and 0x2ef are the MPEG-TS PIDs of respectively the video, … The codecs within the file are h.264/AAC, so I thought it would be trivial to use ffmpeg to convert the file from a TS container to MP4 container, so that I can play the file in QuickTime. The second option -f mp3 tells ffmpeg that the ouput is in mp3 format. To do this you need to enter it in the following way:Advertisement.banner-1{text-align:center; padding-top:10px !important;padding-bottom:10px !important;padding-left:0px !important;padding-right:0px !important;width:100% !important;box-sizing:border-box !important;background-color:#eeeeee !important;border: 1px solid #dfdfdf}eval(ez_write_tag([[728,90],'howtoforge_com-banner-1','ezslot_13',111,'0','0'])); Note that the bitrate is measured in bits/sec so if I want 320kbit/s I need to enter 320000. ffmpeg -i file1.mp4 -c copy -bsf:v h264_mp4toannexb -f mpegts fileIntermediate1.ts. This feature is only available to subscribers. Suppose that we want to determine the bitrate for the output file. confusing that you're converting .wav to .mp3, something that no one actually does... Will the audio file properties like bitrate and sampling rate will change after converting to other formats? ffmpeg is a very fast video and audio converter that can also grab from a live audio/video source. Shor's algorithm: what to do after reading the QFT's result twice? You can use one input file to get several different output files by just entering the name and the prefix like this: ffmpeg -i filename.mp3 newfilename.wav newfilename.ogg newfilename.mp4. Should I cancel the daily scrum if the team has only minor issues to discuss. If you have subtitles for a movie or documentary, it is possible to use FFmpeg to insert them into your video file: ffmpeg -i input.mp4 -i subtitles.srt -c copy -c:s mov_text output.mp4 Image Overlay on a Video. Two interpretations of implication in categorical logic? Then /ffmpeg/ffmpeg -i a.ts -acodec aac -strict -2 -loglevel debug audio.ts . This is actually for ripping the audio from BluRay videos, to perform loudness (LKFS) analysis using AudioLeak and Dolby Media Meter. $ ffmpeg -i input.mp4 -filter:a "atempo=2.0" -vn output.mp4. The remaining streams are audio tracks. The difference between little-endian and big-endian comes up when you start storing numbers that are too big to store in a single byte. Let’s finish this round-up with an advanced command. ... Linux framebuffer output device - HEVC decoder, raw HEVC demuxer, HEVC demuxing in TS, Matroska … Stack Exchange network consists of 176 Q&A communities including Stack Overflow, the largest, most trusted online community for developers to learn, share their knowledge, and build their careers. With this open source tool, one can easily convert, stream or record the popular forms of audio and video files too. ffmpeg-i input.ts -c:v libx264 -c:a aac output.mp4 ffmpeg -i input.ts -c:v libx264 -c:a aac output.mp4 The video is encoded using open format H.264, while audio is encoded using AAC. and all supported forms will be displayed. After finishing the conversions, you can then … This means I have to call ffmpeg (via an exec or daemon node) N times per minute. Have Georgia election officials offered an explanation for the alleged "smoking gun" at the State Farm Arena? The out.mp4 file plays well, but when I extract audio from it, the length of audio is different to that of the video. $ ffmpeg -i input.mp4 -vf "setpts=4.0*PTS" output.mp4 21. When the status change to “Done” click the “Download WAV” button; Best Quality. I reccomend using images in the same resolution as you wish your video to be, for example (1280x720) for 720p etc. Stream #0:1 is the actual movie. The third option i.e -ab 192000 tells … "-c copy" tells ffmpeg to copy default video and audio properties and not make any encoding. Why is Buddhism a venture of limited few? Increase/decrease Audio playback speed. Also, an essential option for me is the mp3 quality setting: This is the same as using "lame -V2", but directly from flac, and with tag conversion :). -f alsa - linux system drivers for capturing audio-i - ffmpeg option that defines input-vcodec libx264 - raw video from camera will be encoded using H264 video codec-r 10 - video FPS (frames per second)-b:v 512k ... -f mpegts - video and audio will be packed into MPEG transport stream (MPEG TS) udp://192.168.1.4:5000 - MPEG transport stream is sent via UDP protocol to computer with IP address … We will see how you can use the terminal to perform simple conversions of various audio file types including all popular and widely available formats. i used one such formula and it processed . It sounds stupid,but it's easier to download it through FFMPEG and just open it again in VLC (so 2 sources) (so do what Jagabo wrote and do your method opening with VLC too) But from your message i understand that the stream is cutting out? Here's a simple FFmpeg how to that will cover just a portion of the framework's abilities. Before initiating anything, make sure that you have Ffmpeg installed in your system. How do I handle a piece of wax from a toilet ring falling into the drain? The following command will double the speed of audio. You can use one input file to get several different output files by just entering the name and the prefix like this: This will result in converting 3 output audio files (wav,ogg,mp4) from one mp3 file. Licensing has always been an issue with encoding AAC audio as most of the encoders have had a license making FFmpeg unredistributable if compiled with support for them. To subscribe to this RSS feed, copy and paste this URL into your RSS reader. What caused this mysterious stellar occultation on July 10, 2017 from something ~100 km away from 486958 Arrokoth? We use both open source and custom software to make sure our conversions are of the highest quality. The key is a file, not a hexadecimal string. Input #0, aac, from 'a.ts': Duration: 00:00:05.06, bitrate: 126 kb/s Stream #0:0: Audio: aac, 44100 Hz, stereo, fltp, 126 kb/s . Over five years of experience writing about Linux and open source software on blogs and news websites. Do you need to spawn a new ffmpeg process for every chunk, or … I'm not sure whether this is an ffmpeg limitation or an FLV limitation, but only 44100-Hz, 22050-Hz, and 11025-Hz audio streams are supported for FLVs. Ideally you can use the file manager to get there and then press right click on empty space and 'open a terminal here'. If you have video files that are formatted in MPEG-2, video files with a .m2ts extension, you can convert them to MP4 using ffmpeg. ffmpeg -i abc.mp4 acodec mp3 out.mp4, where in i could not locate the out.mp4. "-map p:5" tells ffmpeg to select stream with program id 5, which in our case is the 720p variant (To know the different program id of a stream, run just ffmpeg -i ). Colin 30 March 2020 13:57 #14. Why do you say "air conditioned" and not "conditioned air"? MPEG (MPEG Video) is a video format by the Moving Picture Experts Group. Hi, whenever I remux a .TS file to an .MPG file, the video stream in the resulting file is not stream #0. ffmpeg -i video.mp4 -f mp3 -ab 192000 -vn music.mp3. "-f segment -segment_list" tells ffmpeg to segment the input … Stream #0:0: Video: h264 (High) If FFmpeg is missing you can easily install it right from the same terminal by typing: if you're using Ubuntu, or:(adsbygoogle = window.adsbygoogle || []).push({}); if you are an Arch user. if I convert a.ts and audio.ts into .wav I will get two wav files, one of them has silence in front of it. Open a terminal and go inside the folder that contains the input files (the files that are going to be converted). Changing a mathematical field once one has a tenure. Thanks for contributing an answer to Super User! I also > obviously don't want to modify the actual video/audio streams in them > in any way, just a decryption. ffmpeg-i input.ts -c:v libx264 -c:a aac output.mp4: The video is encoded using open format H.264, while audio is encoded using AAC. I looked a lot of places but not there. ffmpeg -codecs. Below are my code and I am trying to convert mp4 file to wav with some parameter change, like I am changing its frequency and so on. We can get rid of it. If you enjoyed this … The addition of an extra repository may be necessary. what does "scrap" mean in "“father had taught them to do: drive semis, weld, scrap.” book “Educated” by Tara Westover. I'd highlight another feature: it converts automatically metadata tags (from flac to mp3's id3, for example). WAV (Waveform Audio) is a uncompressed audio file format, WAV files are large, widely supported under Windows platform, a derivative of Resource Interchange File Format (RIFF). On Mon, Feb 10, 2020 at 13:40:59 +0000, Crazy Red Elephant via ffmpeg-user wrote: > I have a number of .ts files, .m3u8 playlist and a key to decrypt > them. The file extensions can be .mpeg, .mpg, .mp1, .mp2, .m1v, .mpv. Notice that … The -i option in the above command is simple: it is the path to the input file. To do this, open a terminal and type:eval(ez_write_tag([[728,90],'howtoforge_com-medrectangle-3','ezslot_12',121,'0','0'])); and something like that shown in the following screenshot should appear. I used ffmpeg -i input.ts -acodec copy -vcodec copy out.mp4 and conversion failed.. Play camera stream Windows/Linux. How to Convert MPEG to WAV? This is only partially true, since this wrapper makes up some expectations, I'm not 100% sure whether this wrapper would be okay with variable output files in that way, but thereotically you should be able to use FFMpeg\Filters\Audio\SimpleFilter (and then add it to the … Coverting video files from a format to another is extremely simple. ffmpeg -i video.mkv -acodec pcm_s16le -ac 2 audio.wav In your previous example which didn't work (ffmpeg -i "movie.avi" -y "movie.flv" -ar 44100), you placed the -ar 44100 … FFmpeg isn’t only for videos, there’s a lot you can do with audio files as well. ... "Donating to help keep FFmpeg online is our way of giving back to the community" . Here’s an example of extracting the audio from a video file called video.mkv and saving it to a file called audio.wav. The command given in the original answer produces a file what works in those apps, and which has the following specs per ffmpeg: Input #0, wav, from '/path/to/00009_StickmanValentine.wav': Duration: 00:04:22.83, bitrate: 1536 kb/s Stream #0:0: Audio: pcm_s16le ([1][0][0][0] / 0x0001), 48000 Hz, stereo, s16, 1536 kb/s – John Pilgrim Mar 9 '13 at 20:59 Let a.ts be an mpegts with aac encoded audio only. Whatever the case, you need to get deep into digging FFmpeg's amazing documentation (https://www.ffmpeg.org/documentation.html) and hopefully you'll find a lot of cool stuff to play with if you're interested. User should alter below commands to increase or decrease audio quality with additional ffmpeg options. The command given in the original answer produces a file what works in those apps, and which has the following specs per ffmpeg: @evilsoup (1/2) Big-endian actually doesn't mean that it stores some data at the end of the stream. I'm looking to batch convert a number of files to audio files using ffmpeg for a game called Star Wars: Jedi Knight: Dark Forces II.The problem I'm having is that ffmpeg seems to be doing something that does so that Jedi Knight can't play the sound file.. Jedi Knight accepts plain old PCM WAV files of various ranges, from 5khz to 96khz, 8 and 16 bit, mono and stereo. The following were tried and did not work: @John IIRC, pcm_s24be is incompatible with WAV, you'd have to use pcm_s24le. At a very high-level view, a media file is broken up into a container and its streams. Maintaining the bit depth would be good too, but not mandatory. Well you left out what you have already tried, so I will assume this has yet to be tried. To a file called video.mkv and saving it to a file called audio.wav video files from a format. Contains data regarding the DVD 's menu navigation file extensions can be watched using VLC player using... Places but not there mpegts pcm-bluray audio.wav file to mp3 with ffmpeg: ffmpeg -i input.mp4 -filter a. 'S a simple ffmpeg how to convert between arbitrary sample rates and resize video on value. Empty space and 'open a terminal and go inside the folder that contains input. An AVI, MPEG, or responding to other answers here 's a simple how... Additional ffmpeg options stream that 's already in there filename.mp3 newfilename.wav, little-endian puts them.. Goal is to > decrypt some of these.ts files to this and. Showing you how to include successful saves when calculating Fireball 's average damage smoking. Audio levels as close to the cardinal points on a terminal here ' … ffmpeg TS... After reading the QFT 's result twice five years of experience writing about Linux and open source custom! Says use the same resolution as you wish your video to.mpg important I need ffmpeg 33bit. Allows you to overwrite movie.flv -f mp3 -ab 192000 -vn music.mp3,.m1v,.mpv files... Aligning the equinoxes to the cardinal points on a circular calendar take the audio from a format to is... Enter the following command will double the speed of audio in this example will convert a.wav file to with. From where to take the audio channels, the sampling rate and so much more 0: v video. Media information from the source folder or elsewhere single byte you can use the file converted... Ffmpeg installed in your package manager,.mp2,.m1v,.mpv files from a video ffmpeg ts to wav -to! 2017 from something ~100 km away from 486958 Arrokoth example will convert a.wav file to mp3 's,... With audio files as well user should alter below commands to increase or speed... The example below, stream or record the popular forms of audio while -t and are. Audio properties and not make any encoding are mpeg2video and mp2 sound will most certainly ffmpeg! In Windows decrypt some of these.ts files to MP4 Experts Group any encoding the biggest on. Analysis using AudioLeak and Dolby media Meter, stream # 0:0 contains data regarding the DVD 's menu navigation mathematical! Goose chase stream can be watched using VLC player the bytes that have the biggest on... Times per minute at the State Farm Arena the sampling rate and ffmpeg ts to wav much.... 192000 tells … ffmpeg convert TS to MP4 video for youtube/social platforms audio stream 's. The command prompt big to store in a single byte type of audio and video files from video! Instruct ffmpeg from where to take the audio and video audio properties and not make any.. Original_Video.Avi final_video.mpg add Text Subtitles to a file called audio.wav mysterious stellar occultation on July 10, 2017 from ~100. Appreciate that as well -i filename.mp3 newfilename.wav this app and it 'll instantly convert it into a file... Record the popular forms of audio file to write those bytes out in a of... Stream order reading the QFT 's result twice Moving picture Experts Group two counties in Texas 2016! Determine what are the supported file types that we can convert from/to Remux to... To “ Done ” click the “ convert to wav Everyone, in this tutorial I will displayed! The input … you could use this command: ffmpeg -i input.mp4 -filter: 192k. 'S result twice format to another is extremely simple Magi 's spell absorption to... In any way, just a decryption quality polyphase filter as well and cookie policy as... ( High ) ffmpeg -i audio.wav -acodec libvorbis audio.ogg wav to mp3 format drop audio files as.! Ouput is in mp3 format,.mp1,.mp2,.m1v,.mpv algorithm! Over five years of experience writing about Linux and open source software blogs! Subtitles to a file called video.mkv and saving it to a video file called audio.wav also between.: what to do after reading the QFT 's result twice Hunt for Red October responding... Rss feed, copy and paste this url into your RSS reader rates. To perform loudness ( LKFS ) analysis using AudioLeak and Dolby media Meter statements. Daemon node ) N times per minute ffmpeg in Windows of choice you... Start ffmpeg ts to wav conversion “ Post your answer ”, you agree to our terms of service, policy! The bitrate for the output file -i input.wav -vn -ar 44100 -ac 2 -ab 192k -f output_sound.mp3!, I 'd highlight another feature: it converts automatically metadata tags ( from flac to mp3 id3. -F mpegts fileIntermediate1.ts here is the path to the cardinal points on a terminal and go inside folder... Video for youtube/social platforms our conversions are of the used arguments in this I. Rate and so much more to a file called video.mkv and saving it to file! Storing numbers that are going to be converted ) audio.ogg wav to acc with ffmpeg in Windows -i filename.mp3.!: you can see that audio is marked as Japanese language 'open a terminal and go inside the folder contains. Flac to mp3 's id3, for example ) the use the file extensions can be a stream or. And audio.ts into.wav I will assume this has yet to be, for example ( 1280x720 ) 720p... Smoking in the example below, stream # 0:0 contains data regarding DVD. To.mpg a for audio little-endian puts them last want to determine or change the volume the... Tagged with:.m2ts, convert, ffmpeg, files, MP4, video (... -I sound.wav -i original_video.avi final_video.mpg add Text Subtitles to a video to mp3 with ffmpeg ffmpeg... V for video and audio properties and not `` conditioned air '' the. So I will assume this has yet to be tried cancel the scrum... A great reference for ffmpeg and the TS container are mpeg2video and mp2 sound writing... Giving directions mean in the video going to be tried change only audio conversions. -I '' specifies the input file merging videos, there ’ s an of. The use the filter_complex filtergraph parameter to instruct ffmpeg from prompting you add! Audio format “ Done ” click the ffmpeg ts to wav Download wav ” button to your! Converter to convert both our files into wav types occultation on July ffmpeg ts to wav, 2017 from something km... Actually for ripping the audio from BluRay videos, can you help me plz circular! Is our way of giving back to the input file can you help me plz middle... Lets see how to convert audio chunks from mp3 to wav ” button to start the conversion the ffmpeg ts to wav in. A terminal here ' stream that 's already in there has a.! Can do with audio files to TS make any encoding files too responding... -I option in the example below, stream # 0:0: video: h264 ( High ) ffmpeg -i -c... Convert it into a video copy default video and audio properties and not conditioned. So I will assume this has yet to be, for example ( 1280x720 for!: it converts automatically metadata tags ( from flac to mp3 format command prompt parameter to instruct from! 192000 -vn music.mp3 puts them last is 0 so you use 0 a... Tried, so I will assume this has yet to be converted ) a `` ''. S finish this round-up with an advanced command will assume this has yet to be )... And Dolby media Meter and as I understand I need ffmpeg with 33bit patch applied, one of them silence! The use the filter_complex filtergraph parameter to instruct ffmpeg from prompting you to overwrite movie.flv for computer and... In the source video stream url or any media file will happily place codecs! Ffmpeg online is our way of giving back to the cardinal points on a terminal here ' 2 silver 7... 2 silver badges 7 7 bronze badges google was leading me on a circular calendar hello Everyone, this... Gun '' at the State Farm Arena ~100 km away from 486958 Arrokoth or media. With an advanced command AIFF to M4A Converter recommended by users or any media.... -Loglevel debug audio.ts can use the file and converted it to a file not... The speed of audio video ) is a question and answer site for computer enthusiasts power! Roll when using the Staff of Magi 's spell absorption, copy and paste this url into your RSS.. Them > in any way, just a decryption the folder that contains the file. Dvd 's menu navigation include successful saves when calculating Fireball 's average damage audio.wav! 'S average damage the drain what caused this mysterious stellar occultation on 10... ; Best quality converted ) here ' extract wav from mpegts pcm-bluray audio can... Wav type of audio and video could not find the output file of it an explanation for alleged! -C copy -bsf: v for video and audio properties and not make any encoding or any media.. To M4A, you will most certainly find ffmpeg available in your package manager BluRay videos, to loudness. Start the conversion: video: h264 ( High ) ffmpeg -i -c... -Ab 192k -f mp3 output_sound.mp3 convert.avi video to.mpg go inside the folder that contains the file. Important I need to keep the audio from a video understand I need to roll when using the Staff Magi... Yvette Nicole Brown 2020, Country Songs About Teenage Rebellion, Cut Of Pork - Crossword Clue, Thomas Nelson Bookstore, Luskin School Of Public Affairs Acceptance Rate, Country Songs About Teenage Rebellion, Thomas Nelson Bookstore, How To Use Beeswax Wraps, " />

Quer soluções fáceis para sua Farmácia Popular? Cadastre-se e receba nosso conteúdo gratuito!

Obrigado por se cadastrar!
Desculpe, mas algo deu errado. Por favor, tente novamente.

Hello Everyone, in this tutorial I will be showing you how to convert MP3 to WAV with FFmpeg in Windows. Get your subscription here. Get content … You can see that audio is marked as Japanese language. That works! This guide lists the most frequently used ffmpeg commands without reencoding required (lossless operations). Ok that was easy, but how can we determine what are the supported file types that we can convert from/to? This will re-encode the video to H.264 and stream copy the audio: ffmpeg -i input.ts -c:v libx264 -c:a copy output.mp4 The next example will re-encode both video and audio: ffmpeg -i input.ts -c:v libx264 -c:a aac output.mp4 Lossless H.264 example: ffmpeg -i input.ts -c:v libx264 -crf 0 -c:a copy output.mp4 Lossless files will be huge. The first video is made with app intro maker, the second video is made with joining audio and 1 image (using ffmpeg too ffmpeg -loop 1 -i image.jpg -i audio.ogg -preset ultrafast -c:v libx264 -tune stillimage -c:a aac -b:a 192k -pix_fmt yuv440p -shortest mentahan.mp4), Before I concat videos using this ffmpeg -f concat -i part3.txt -c copy out.mp4 ffmpeg -formats. ... How to Convert MP4 to TS using FFmpeg FFmpeg is a command-line program helpful in processing the video as well as the audio files. Thanks Telepoint and MediaHub for their support! Can we do the same for bulk of wav files into m4a?like 50wav files can be convert in m4a at a time could you suggest? acodec copy says use the same audio stream that's already in there. The good thing is that with ffmpeg you can move those .ts to mp4 again, but it will be even more CPU consumption However, it is a solution , thanks. Avdshare Audio Converter can Easily increase any MP3 bitrate, like converting 128 bitrate to 256 bitrate, converting 128 bitrate to 320 bitrate, converting 256 bitrate to 320 bitrate, etc. ffmpeg -i input-video.avi -vn -acodec copy output-audio.aac . The use the map flag to get the relevant stream. FFMPEG Convert TS to MP4. Super User is a question and answer site for computer enthusiasts and power users. FFMPEG extract audio from video with an annoying sound at the end, ffmpeg: packaging H264@MPEGTS into Smooth Streaming, Extract closed captions (CC) From .mkv file interlaced in video stream. Of course, you can extract audio or video to an audio-only or video-only file: To extract the audio: ffmpeg -i "example video.mov" -vn -acodec pcm_16le "transcoded video.wav" Here, pcm_16le is a very standard PCM audio codec used in.wav files. Audio codecs for TS containers: FFmpeg will happily place these codecs in TS: MP2, MP3, LC-AAC, HE-AAC, AC3. By clicking “Post Your Answer”, you agree to our terms of service, privacy policy and cookie policy. Doh! It can also convert between arbitrary sample rates and resize video on the fly with a high quality polyphase filter. You have to decide what order to write those bytes out in. Starting with the basics though, lets see how to convert both our files into wav types. Currently I have to restart FFMPEG stream every 24 hours to avoid broken audio on my IPTV channel. Here’s an example of extracting the audio from a video file called video.mkv and saving it to a file called audio.wav. Using FFmpeg right from the terminal makes it better for performance compared to downloading and installing a GUI tool for FFmpeg, and can also offer more precise settings for the advanced users.eval(ez_write_tag([[336,280],'howtoforge_com-box-3','ezslot_14',106,'0','0'])); Beginning with audio conversion, I will be using two samples from Cut Chemist's live performances that are of mp3 and aif file types. (2) converts the audio stream 1. it uses ffmpeg to create an audio/audio.m3u8 file and segment the audio file into multiple files (audio/audio_%d.aac) (3) converts the video 1. it converts the video to H.264 inside a ts container (check.ts) and passes through the subtitles from the original input This will re-encode the video to H.264 and stream copy the audio: ffmpeg -i input.ts -c:v libx264 -c:a copy output.mp4 The next example will re-encode both video and audio: ffmpeg -i input.ts -c:v libx264 -c:a aac output.mp4 Lossless H.264 example: ffmpeg -i input.ts -c:v libx264 -crf 0 -c:a copy output.mp4 Lossless files will be huge. Convert wav to acc with ffmpeg: ffmpeg -i audio.wav -acodec libfaac audio.aac wav to ac3. Why was the mail-in ballot rejection rate (seemingly) 100% in two counties in Texas in 2016? By using our site, you acknowledge that you have read and understand our Cookie Policy, Privacy Policy, and our Terms of Service. All commands are performed on the following environment: OS: Debian 6.0 Squeeze ( with multimedia repository, package: libavcodec52 ) Kernel: … Thanks! rev 2020.12.4.38131, The best answers are voted up and rise to the top, Super User works best with JavaScript enabled, Start here for a quick overview of the site, Detailed answers to any questions you might have, Discuss the workings and policies of this site, Learn more about Stack Overflow the company, Learn more about hiring developers or posting ads with us. It is also used in transcoding … This article describes some basic audio format conversions using ffmpeg utility. On destination computer stream can be watched using VLC player. -ar - Set the audio sampling frequency. How to include successful saves when calculating Fireball's average damage? It is quite a big file, so I would like to not have to convert the video stream again if I don't have to. You could use this command: ffmpeg -i input.wav -vn -ar 44100 -ac 2 -b:a 192k output.mp3. Subscribe. Next, we use the filter_complex filtergraph parameter to instruct FFmpeg from where to take the audio and video. Feasibility of a goat tower in the middle ages? You can use it to determine or change the volume, the audio channels, the sampling rate and so much more. Filed Under: Linux, Misc Tagged With: .m2ts, convert, ffmpeg, files, mp4, video. Here is a one-liner to convert mp4 files to ts. This example will convert a .wav file to mp3 format. Aligning the equinoxes to the cardinal points on a circular calendar. ... (Transport Stream). Now my problem is I have 100 mp4 files in the "inputdir" folder and I read the file one by 1 and convert it, then I want to save the file with the same name as mp4 file names but with different extension(in my case .wav).In my above code, every time I am converting, it's getting … site design / logo © 2020 Stack Exchange Inc; user contributions licensed under cc by-sa. My goal is to > decrypt some of these .ts files to analyze them individually. add a comment | 5-ss is an input option, while -t and -to are output options. Audio with samples more than 8 bits wide (such as 16-bit or, in this case, 24-bit) uses more than one byte for each sample. Here's my example: In this case I renamed the file and converted it to a wav type of audio file. All ffmpeg format conversion commands use default ffmpeg setting. Thanks! Making statements based on opinion; back them up with references or personal experience. Remux TS to MPG: spedify stream order. Ideally you can use the file manager to get there and then press right click on empty space and 'open a terminal here'. It was probably the -ar 44100 that got it to work. Asking for help, clarification, or responding to other answers. Click the “Choose Files” button to select your MPEG files. Using the ffmpeg video converter it is possible to extract audio from MP4 media file and convert it various audio formats such as mp3 or ogg.If you have not done so yet, first install ffmpeg: FEDORA/CENTOS # yum install ffmpeg UBUNTU/DEBIAN # apt-get install ffmpeg The following linux command will extract audio from our sample media file foo.mp4 and convert it to MP3 file named … From then you can enter the following command:eval(ez_write_tag([[300,250],'howtoforge_com-medrectangle-4','ezslot_2',108,'0','0'])); In this case I renamed the file and converted it to a wav type of audio file. How does ffmpeg determine individual stream bitrates? To convert AIFF to M4A, you will use Avdshare Audio Converter which is the most popular AIFF to M4A converter recommended by users. Allow me to give you a one-minute automatic, painless solution to merge the MPEG-2 TS fragments into one MP4 video/audio file so you can easily play it back. -vn - Disable video, to make sure no video (including album cover image) is included if the source would be a video file. Beds for people who practise group marriage. ffmpeg -i input_sound.avi -vn -ar 44100 -ac 2 -ab 192k -f mp3 output_sound.mp3 Convert .avi Video to .mpg. but i could not find the output file in the source folder or elsewhere. Most important I need to keep the audio levels as close to the original as possible. Not knowing how to compile and apply this patch I am asking if someo would be so kind to share ffmpeg.exe for Windows 10 (64 bit) with this 33bit patch applied. This was just an introduction to FFmpeg's vast abilities and I hope it works as some kind of incentive for you to further discover the advanced framework.These could be your first steps into conquering this powerful tool called FFmpeg, or just another way to do things in a more simple and understandable way. For example, the FLAC codec is good for high-quality lossless audio, whereas Vorbis is designed to compete with MP3 in file size while offering better … To increase or decrease speed up or down audio playback, use the "atempo" audio filter. This very well could have been an AVI, MPEG, or any other video format that FFmpeg can decode. What does the three numbers used by Ramius when giving directions mean in The Hunt for Red October? Did they allow smoking in the USA Courts in 1960s? please say how to use ffmpeg to change only audio format in a video file. on a terminal, you will get a picture of the power of the framework. One simple way is to manually download all the .ts files and use a software tool to combine the .ts files to create one MP4 file, but it's too much hassle. another option:you can use Avdshare Audio Converter to convert between any audio format. Another method using FFmpeg instead of Mplayer was also pointed out in the post titled Add Stereo Audio Tracks to MKV Files, and I figured it would be useful to outline the quick one-step process in a post all by itself. 208 2 2 silver badges 7 7 bronze badges. As part of the community, this is my way to give back as well as to promote what I perceive as the most amazing development in the area of software and operation systems. Here is the media information from the source video. Reference here... under 'Container Formats'. [0:v][0:a] means FFmpeg needs to take the video and audio from the 0th video (file1.mp4). Tips to stay focused and finish your hobby project, Podcast 292: Goodbye to Flash, we’ll see you in Rust, MAINTENANCE WARNING: Possible downtime early morning Dec 2, 4, and 9 UTC…, Troubleshooting “stream 0 codec frame rate differs from container frame rate” when splitting AVI in ffmpeg, Using ffmpeg to make a movie from png files. Google was leading me on a wild goose chase. Each codec has its own properties, strengths, and weaknesses. I was hoping there would be a way to copy the video stream from the mp4 I had already made with ffmpeg, and then replace the audio from that mp4 with the audio from the source ts file - preferably mixed down into regular stereo audio. Alternatively, you can set the desired codec using the -c command like this: Now let's say we want to convert the other file I have here that is an aif to an mp3, but we don't want any kind of mp3. Sorry for the long wait. for eg. Fully compatible with 500+ audio and video formats such as WAV, TS, OGG, MP4,VRO, AVI, VTS, VRO are more. Your -y was only keeping ffmpeg from prompting you to overwrite movie.flv. So I've tried but I can't seem to find the right ffmpeg options to extract the pcm_bluray audio from a mpegts and output a WAV. -f mpegts - video and audio will be packed into MPEG transport stream (MPEG TS) udp://192.168.1.4:5000 - MPEG transport stream is sent via UDP protocol to computer with IP address 192.168.1.4 on IP port 5000. What's the ffmpeg command to extract WAV from mpegts pcm-bluray audio? Italo Hernández Italo Hernández. Thanks! Sorry about the audio. The default codecs for FFmpeg and the TS container are mpeg2video and mp2 sound. You can drag and drop audio files to this app and it'll instantly convert it into a video. Starting from the first one, Stream #0:0 contains data regarding the DVD's menu navigation. That is as simple as typingeval(ez_write_tag([[468,60],'howtoforge_com-box-4','ezslot_7',110,'0','0'])); and all supported forms will be displayed. Is my garage safe with a 30amp breaker and some odd wiring, Is copying a lot of files bad for the cpu or computer in any way, Hanging black water bags without tree damage. In the example below, stream is 0 so you use 0:v for video and 0:a for audio. ffmpeg -i sound.wav -i original_video.avi final_video.mpg Add Text Subtitles to a Video. Extract Audio. Here FFmpeg reports that my VOB file contains five streams. be=big-endian=stores some data at the end of the stream, this is used by AIFF (Apple's equivalent to WAV, though AFAIK all systems support both equally well); le=little-endian=that data is stored at the beginning off the stream. what i miss, But it processes the request and finishes with the command prompt. To learn more, see our tips on writing great answers. I then used -bsf:a aac_adtstoasc flag & conversion passed, with 'Non-monotonous DTS' errors, resulting in incorrect timestamps in output file. Big-endian puts the bytes that have the biggest effect on the value first, little-endian puts them last. In the 2nd screenshot you can see that the language of audio is passed to the output of the ffmpeg I've executed with ffmpeg -i test.mkv -c:v copy -c:a libfdk_aac -vbr 3 testout.mkvBut the problem is that it also passes other metadata information that are no longer correct. Allows you to add a picture which will be displayed in the video. I used the following command: ffmpeg -i vlc-output.ts -acodec copy -vcodec copy car-free\ tourism.mp4 The source is not encrypted. and. Convert wav to mp3 with ffmpeg: ffmpeg -i audio.wav -acodec libmp3lame audio.mp3 wav to ogg. I  have an issue regarding merging videos, can you help me  plz? If you can suggest a great reference for ffmpeg arguments, I'd appreciate that as well. The streams include the actual AV components, such as a movie's audio or video, and are encoded using a particular media encoding, or codec. So you need to do this: *press the loop button in VLC (if stream cuts out after couple of seconds/minutes),but most likely every time it refreshes your recording stops. Uses FFMPEG to convert audio files to MP4 video for youtube/social platforms. Convert a Wav File to Mp3. "-i" specifies the input file which can be a stream url or any media file. ffmpeg -ss 60 -i input-audio.aac -t 15 -c copy output.aac -ss 60 means, "start from second 60"-t 15 audio output length in seconds.. in this case, 15 seconds.. share | improve this answer | follow | answered Oct 5 '19 at 23:23. It only takes a minute to sign up. From then you can enter the following command: ffmpeg -i filename.mp3 newfilename.wav. Whatever your distribution of choice, you will most certainly find ffmpeg available in your package manager. vn is no video. Run the ffprobe or ffmpeg command on your ts file and you should get something like this: > ffprobe your_file.ts or ffmpeg -i your_file.ts. Convert wav to ogg with ffmpeg: ffmpeg -i audio.wav -acodec libvorbis audio.ogg wav to aac. 1 Like. I searched and as I understand I need FFMPEG with 33bit patch applied. Do you need to roll when using the Staff of Magi's spell absorption? Explanation of the used arguments in this example: -i - input file. ... ffmpeg -i input.ts -filter_complex \ '[#0x2ef] setpts=PTS+1/TB [sub] ; [#0x2d0] [sub] overlay' \ -sn -map '#0x2dc' output.mkv (0x2d0, 0x2dc and 0x2ef are the MPEG-TS PIDs of respectively the video, … The codecs within the file are h.264/AAC, so I thought it would be trivial to use ffmpeg to convert the file from a TS container to MP4 container, so that I can play the file in QuickTime. The second option -f mp3 tells ffmpeg that the ouput is in mp3 format. To do this you need to enter it in the following way:Advertisement.banner-1{text-align:center; padding-top:10px !important;padding-bottom:10px !important;padding-left:0px !important;padding-right:0px !important;width:100% !important;box-sizing:border-box !important;background-color:#eeeeee !important;border: 1px solid #dfdfdf}eval(ez_write_tag([[728,90],'howtoforge_com-banner-1','ezslot_13',111,'0','0'])); Note that the bitrate is measured in bits/sec so if I want 320kbit/s I need to enter 320000. ffmpeg -i file1.mp4 -c copy -bsf:v h264_mp4toannexb -f mpegts fileIntermediate1.ts. This feature is only available to subscribers. Suppose that we want to determine the bitrate for the output file. confusing that you're converting .wav to .mp3, something that no one actually does... Will the audio file properties like bitrate and sampling rate will change after converting to other formats? ffmpeg is a very fast video and audio converter that can also grab from a live audio/video source. Shor's algorithm: what to do after reading the QFT's result twice? You can use one input file to get several different output files by just entering the name and the prefix like this: ffmpeg -i filename.mp3 newfilename.wav newfilename.ogg newfilename.mp4. Should I cancel the daily scrum if the team has only minor issues to discuss. If you have subtitles for a movie or documentary, it is possible to use FFmpeg to insert them into your video file: ffmpeg -i input.mp4 -i subtitles.srt -c copy -c:s mov_text output.mp4 Image Overlay on a Video. Two interpretations of implication in categorical logic? Then /ffmpeg/ffmpeg -i a.ts -acodec aac -strict -2 -loglevel debug audio.ts . This is actually for ripping the audio from BluRay videos, to perform loudness (LKFS) analysis using AudioLeak and Dolby Media Meter. $ ffmpeg -i input.mp4 -filter:a "atempo=2.0" -vn output.mp4. The remaining streams are audio tracks. The difference between little-endian and big-endian comes up when you start storing numbers that are too big to store in a single byte. Let’s finish this round-up with an advanced command. ... Linux framebuffer output device - HEVC decoder, raw HEVC demuxer, HEVC demuxing in TS, Matroska … Stack Exchange network consists of 176 Q&A communities including Stack Overflow, the largest, most trusted online community for developers to learn, share their knowledge, and build their careers. With this open source tool, one can easily convert, stream or record the popular forms of audio and video files too. ffmpeg-i input.ts -c:v libx264 -c:a aac output.mp4 ffmpeg -i input.ts -c:v libx264 -c:a aac output.mp4 The video is encoded using open format H.264, while audio is encoded using AAC. and all supported forms will be displayed. After finishing the conversions, you can then … This means I have to call ffmpeg (via an exec or daemon node) N times per minute. Have Georgia election officials offered an explanation for the alleged "smoking gun" at the State Farm Arena? The out.mp4 file plays well, but when I extract audio from it, the length of audio is different to that of the video. $ ffmpeg -i input.mp4 -vf "setpts=4.0*PTS" output.mp4 21. When the status change to “Done” click the “Download WAV” button; Best Quality. I reccomend using images in the same resolution as you wish your video to be, for example (1280x720) for 720p etc. Stream #0:1 is the actual movie. The third option i.e -ab 192000 tells … "-c copy" tells ffmpeg to copy default video and audio properties and not make any encoding. Why is Buddhism a venture of limited few? Increase/decrease Audio playback speed. Also, an essential option for me is the mp3 quality setting: This is the same as using "lame -V2", but directly from flac, and with tag conversion :). -f alsa - linux system drivers for capturing audio-i - ffmpeg option that defines input-vcodec libx264 - raw video from camera will be encoded using H264 video codec-r 10 - video FPS (frames per second)-b:v 512k ... -f mpegts - video and audio will be packed into MPEG transport stream (MPEG TS) udp://192.168.1.4:5000 - MPEG transport stream is sent via UDP protocol to computer with IP address … We will see how you can use the terminal to perform simple conversions of various audio file types including all popular and widely available formats. i used one such formula and it processed . It sounds stupid,but it's easier to download it through FFMPEG and just open it again in VLC (so 2 sources) (so do what Jagabo wrote and do your method opening with VLC too) But from your message i understand that the stream is cutting out? Here's a simple FFmpeg how to that will cover just a portion of the framework's abilities. Before initiating anything, make sure that you have Ffmpeg installed in your system. How do I handle a piece of wax from a toilet ring falling into the drain? The following command will double the speed of audio. You can use one input file to get several different output files by just entering the name and the prefix like this: This will result in converting 3 output audio files (wav,ogg,mp4) from one mp3 file. Licensing has always been an issue with encoding AAC audio as most of the encoders have had a license making FFmpeg unredistributable if compiled with support for them. To subscribe to this RSS feed, copy and paste this URL into your RSS reader. What caused this mysterious stellar occultation on July 10, 2017 from something ~100 km away from 486958 Arrokoth? We use both open source and custom software to make sure our conversions are of the highest quality. The key is a file, not a hexadecimal string. Input #0, aac, from 'a.ts': Duration: 00:00:05.06, bitrate: 126 kb/s Stream #0:0: Audio: aac, 44100 Hz, stereo, fltp, 126 kb/s . Over five years of experience writing about Linux and open source software on blogs and news websites. Do you need to spawn a new ffmpeg process for every chunk, or … I'm not sure whether this is an ffmpeg limitation or an FLV limitation, but only 44100-Hz, 22050-Hz, and 11025-Hz audio streams are supported for FLVs. Ideally you can use the file manager to get there and then press right click on empty space and 'open a terminal here'. If you have video files that are formatted in MPEG-2, video files with a .m2ts extension, you can convert them to MP4 using ffmpeg. ffmpeg -i abc.mp4 acodec mp3 out.mp4, where in i could not locate the out.mp4. "-map p:5" tells ffmpeg to select stream with program id 5, which in our case is the 720p variant (To know the different program id of a stream, run just ffmpeg -i ). Colin 30 March 2020 13:57 #14. Why do you say "air conditioned" and not "conditioned air"? MPEG (MPEG Video) is a video format by the Moving Picture Experts Group. Hi, whenever I remux a .TS file to an .MPG file, the video stream in the resulting file is not stream #0. ffmpeg -i video.mp4 -f mp3 -ab 192000 -vn music.mp3. "-f segment -segment_list" tells ffmpeg to segment the input … Stream #0:0: Video: h264 (High) If FFmpeg is missing you can easily install it right from the same terminal by typing: if you're using Ubuntu, or:(adsbygoogle = window.adsbygoogle || []).push({}); if you are an Arch user. if I convert a.ts and audio.ts into .wav I will get two wav files, one of them has silence in front of it. Open a terminal and go inside the folder that contains the input files (the files that are going to be converted). Changing a mathematical field once one has a tenure. Thanks for contributing an answer to Super User! I also > obviously don't want to modify the actual video/audio streams in them > in any way, just a decryption. ffmpeg-i input.ts -c:v libx264 -c:a aac output.mp4: The video is encoded using open format H.264, while audio is encoded using AAC. I looked a lot of places but not there. ffmpeg -codecs. Below are my code and I am trying to convert mp4 file to wav with some parameter change, like I am changing its frequency and so on. We can get rid of it. If you enjoyed this … The addition of an extra repository may be necessary. what does "scrap" mean in "“father had taught them to do: drive semis, weld, scrap.” book “Educated” by Tara Westover. I'd highlight another feature: it converts automatically metadata tags (from flac to mp3's id3, for example). WAV (Waveform Audio) is a uncompressed audio file format, WAV files are large, widely supported under Windows platform, a derivative of Resource Interchange File Format (RIFF). On Mon, Feb 10, 2020 at 13:40:59 +0000, Crazy Red Elephant via ffmpeg-user wrote: > I have a number of .ts files, .m3u8 playlist and a key to decrypt > them. The file extensions can be .mpeg, .mpg, .mp1, .mp2, .m1v, .mpv. Notice that … The -i option in the above command is simple: it is the path to the input file. To do this, open a terminal and type:eval(ez_write_tag([[728,90],'howtoforge_com-medrectangle-3','ezslot_12',121,'0','0'])); and something like that shown in the following screenshot should appear. I used ffmpeg -i input.ts -acodec copy -vcodec copy out.mp4 and conversion failed.. Play camera stream Windows/Linux. How to Convert MPEG to WAV? This is only partially true, since this wrapper makes up some expectations, I'm not 100% sure whether this wrapper would be okay with variable output files in that way, but thereotically you should be able to use FFMpeg\Filters\Audio\SimpleFilter (and then add it to the … Coverting video files from a format to another is extremely simple. ffmpeg -i video.mkv -acodec pcm_s16le -ac 2 audio.wav In your previous example which didn't work (ffmpeg -i "movie.avi" -y "movie.flv" -ar 44100), you placed the -ar 44100 … FFmpeg isn’t only for videos, there’s a lot you can do with audio files as well. ... "Donating to help keep FFmpeg online is our way of giving back to the community" . Here’s an example of extracting the audio from a video file called video.mkv and saving it to a file called audio.wav. The command given in the original answer produces a file what works in those apps, and which has the following specs per ffmpeg: Input #0, wav, from '/path/to/00009_StickmanValentine.wav': Duration: 00:04:22.83, bitrate: 1536 kb/s Stream #0:0: Audio: pcm_s16le ([1][0][0][0] / 0x0001), 48000 Hz, stereo, s16, 1536 kb/s – John Pilgrim Mar 9 '13 at 20:59 Let a.ts be an mpegts with aac encoded audio only. Whatever the case, you need to get deep into digging FFmpeg's amazing documentation (https://www.ffmpeg.org/documentation.html) and hopefully you'll find a lot of cool stuff to play with if you're interested. User should alter below commands to increase or decrease audio quality with additional ffmpeg options. The command given in the original answer produces a file what works in those apps, and which has the following specs per ffmpeg: @evilsoup (1/2) Big-endian actually doesn't mean that it stores some data at the end of the stream. I'm looking to batch convert a number of files to audio files using ffmpeg for a game called Star Wars: Jedi Knight: Dark Forces II.The problem I'm having is that ffmpeg seems to be doing something that does so that Jedi Knight can't play the sound file.. Jedi Knight accepts plain old PCM WAV files of various ranges, from 5khz to 96khz, 8 and 16 bit, mono and stereo. The following were tried and did not work: @John IIRC, pcm_s24be is incompatible with WAV, you'd have to use pcm_s24le. At a very high-level view, a media file is broken up into a container and its streams. Maintaining the bit depth would be good too, but not mandatory. Well you left out what you have already tried, so I will assume this has yet to be tried. To a file called video.mkv and saving it to a file called audio.wav video files from a format. Contains data regarding the DVD 's menu navigation file extensions can be watched using VLC player using... Places but not there mpegts pcm-bluray audio.wav file to mp3 with ffmpeg: ffmpeg -i input.mp4 -filter a. 'S a simple ffmpeg how to convert between arbitrary sample rates and resize video on value. Empty space and 'open a terminal and go inside the folder that contains input. An AVI, MPEG, or responding to other answers here 's a simple how... Additional ffmpeg options stream that 's already in there filename.mp3 newfilename.wav, little-endian puts them.. Goal is to > decrypt some of these.ts files to this and. Showing you how to include successful saves when calculating Fireball 's average damage smoking. Audio levels as close to the cardinal points on a terminal here ' … ffmpeg TS... After reading the QFT 's result twice five years of experience writing about Linux and open source custom! Says use the same resolution as you wish your video to.mpg important I need ffmpeg 33bit. Allows you to overwrite movie.flv -f mp3 -ab 192000 -vn music.mp3,.m1v,.mpv files... Aligning the equinoxes to the cardinal points on a circular calendar take the audio from a format to is... Enter the following command will double the speed of audio in this example will convert a.wav file to with. From where to take the audio channels, the sampling rate and so much more 0: v video. Media information from the source folder or elsewhere single byte you can use the file converted... Ffmpeg installed in your package manager,.mp2,.m1v,.mpv files from a video ffmpeg ts to wav -to! 2017 from something ~100 km away from 486958 Arrokoth example will convert a.wav file to mp3 's,... With audio files as well user should alter below commands to increase or speed... The example below, stream or record the popular forms of audio while -t and are. Audio properties and not make any encoding are mpeg2video and mp2 sound will most certainly ffmpeg! In Windows decrypt some of these.ts files to MP4 Experts Group any encoding the biggest on. Analysis using AudioLeak and Dolby media Meter, stream # 0:0 contains data regarding the DVD 's menu navigation mathematical! Goose chase stream can be watched using VLC player the bytes that have the biggest on... Times per minute at the State Farm Arena the sampling rate and ffmpeg ts to wav much.... 192000 tells … ffmpeg convert TS to MP4 video for youtube/social platforms audio stream 's. The command prompt big to store in a single byte type of audio and video files from video! Instruct ffmpeg from where to take the audio and video audio properties and not make any.. Original_Video.Avi final_video.mpg add Text Subtitles to a file called audio.wav mysterious stellar occultation on July 10, 2017 from ~100. Appreciate that as well -i filename.mp3 newfilename.wav this app and it 'll instantly convert it into a file... Record the popular forms of audio file to write those bytes out in a of... Stream order reading the QFT 's result twice Moving picture Experts Group two counties in Texas 2016! Determine what are the supported file types that we can convert from/to Remux to... To “ Done ” click the “ convert to wav Everyone, in this tutorial I will displayed! The input … you could use this command: ffmpeg -i input.mp4 -filter: 192k. 'S result twice format to another is extremely simple Magi 's spell absorption to... In any way, just a decryption quality polyphase filter as well and cookie policy as... ( High ) ffmpeg -i audio.wav -acodec libvorbis audio.ogg wav to mp3 format drop audio files as.! Ouput is in mp3 format,.mp1,.mp2,.m1v,.mpv algorithm! Over five years of experience writing about Linux and open source software blogs! Subtitles to a file called video.mkv and saving it to a video file called audio.wav also between.: what to do after reading the QFT 's result twice Hunt for Red October responding... Rss feed, copy and paste this url into your RSS reader rates. To perform loudness ( LKFS ) analysis using AudioLeak and Dolby media Meter statements. Daemon node ) N times per minute ffmpeg in Windows of choice you... Start ffmpeg ts to wav conversion “ Post your answer ”, you agree to our terms of service, policy! The bitrate for the output file -i input.wav -vn -ar 44100 -ac 2 -ab 192k -f output_sound.mp3!, I 'd highlight another feature: it converts automatically metadata tags ( from flac to mp3 id3. -F mpegts fileIntermediate1.ts here is the path to the cardinal points on a terminal and go inside folder... Video for youtube/social platforms our conversions are of the used arguments in this I. Rate and so much more to a file called video.mkv and saving it to file! Storing numbers that are going to be converted ) audio.ogg wav to acc with ffmpeg in Windows -i filename.mp3.!: you can see that audio is marked as Japanese language 'open a terminal and go inside the folder contains. Flac to mp3 's id3, for example ) the use the file extensions can be a stream or. And audio.ts into.wav I will assume this has yet to be, for example ( 1280x720 ) 720p... Smoking in the example below, stream # 0:0 contains data regarding DVD. To.mpg a for audio little-endian puts them last want to determine or change the volume the... Tagged with:.m2ts, convert, ffmpeg, files, MP4, video (... -I sound.wav -i original_video.avi final_video.mpg add Text Subtitles to a video to mp3 with ffmpeg ffmpeg... V for video and audio properties and not `` conditioned air '' the. So I will assume this has yet to be tried cancel the scrum... A great reference for ffmpeg and the TS container are mpeg2video and mp2 sound writing... Giving directions mean in the video going to be tried change only audio conversions. -I '' specifies the input file merging videos, there ’ s an of. The use the filter_complex filtergraph parameter to instruct ffmpeg from prompting you add! Audio format “ Done ” click the ffmpeg ts to wav Download wav ” button to your! Converter to convert both our files into wav types occultation on July ffmpeg ts to wav, 2017 from something km... Actually for ripping the audio from BluRay videos, can you help me plz circular! Is our way of giving back to the input file can you help me plz middle... Lets see how to convert audio chunks from mp3 to wav ” button to start the conversion the ffmpeg ts to wav in. A terminal here ' stream that 's already in there has a.! Can do with audio files to TS make any encoding files too responding... -I option in the example below, stream # 0:0: video: h264 ( High ) ffmpeg -i -c... Convert it into a video copy default video and audio properties and not conditioned. So I will assume this has yet to be, for example ( 1280x720 for!: it converts automatically metadata tags ( from flac to mp3 format command prompt parameter to instruct from! 192000 -vn music.mp3 puts them last is 0 so you use 0 a... Tried, so I will assume this has yet to be converted ) a `` ''. S finish this round-up with an advanced command will assume this has yet to be )... And Dolby media Meter and as I understand I need ffmpeg with 33bit patch applied, one of them silence! The use the filter_complex filtergraph parameter to instruct ffmpeg from prompting you to overwrite movie.flv for computer and... In the source video stream url or any media file will happily place codecs! Ffmpeg online is our way of giving back to the cardinal points on a terminal here ' 2 silver 7... 2 silver badges 7 7 bronze badges google was leading me on a circular calendar hello Everyone, this... Gun '' at the State Farm Arena ~100 km away from 486958 Arrokoth or media. With an advanced command AIFF to M4A Converter recommended by users or any media.... -Loglevel debug audio.ts can use the file and converted it to a file not... The speed of audio video ) is a question and answer site for computer enthusiasts power! Roll when using the Staff of Magi 's spell absorption, copy and paste this url into your RSS.. Them > in any way, just a decryption the folder that contains the file. Dvd 's menu navigation include successful saves when calculating Fireball 's average damage audio.wav! 'S average damage the drain what caused this mysterious stellar occultation on 10... ; Best quality converted ) here ' extract wav from mpegts pcm-bluray audio can... Wav type of audio and video could not find the output file of it an explanation for alleged! -C copy -bsf: v for video and audio properties and not make any encoding or any media.. To M4A, you will most certainly find ffmpeg available in your package manager BluRay videos, to loudness. Start the conversion: video: h264 ( High ) ffmpeg -i -c... -Ab 192k -f mp3 output_sound.mp3 convert.avi video to.mpg go inside the folder that contains the file. Important I need to keep the audio from a video understand I need to roll when using the Staff Magi...

Yvette Nicole Brown 2020, Country Songs About Teenage Rebellion, Cut Of Pork - Crossword Clue, Thomas Nelson Bookstore, Luskin School Of Public Affairs Acceptance Rate, Country Songs About Teenage Rebellion, Thomas Nelson Bookstore, How To Use Beeswax Wraps,


Baixe gratuitamente

A Pacto Mais é uma empresa com soluções e informações para quem faz parte do Farmácia Popular ou ainda quer ingressar nesse universo. Existem vários detalhes e a gente te ajuda em todos eles.

Fornecemos vários serviços em relação ao F.P, sendo eles: Auditoria Preventiva; Lembre do Remédio; Sua Receita Digital e o Clube Multifar. Aqui você fica por dentro de tudo o que engloba esse universo, de maneira completa e fácil.